Slecht beeld en slecht audio - vervormt

Slecht beeld en slecht audio - vervormt

Berichtdoor Wilco » ma 02 okt 2017, 22:23

Zijn er meer mensen die last hebben van het slechte vervormde signaal van BVN. Het beeld is zeer wazig en het geluid is zwaar vervormt.
Wilco
 
Berichten: 24
Lid geworden op: vr 31 dec 2010, 04:45

Re: Slecht beeld en slecht audio - vervormt

Berichtdoor veenklaa » di 03 okt 2017, 13:03

Hallo Wilco,
Nee hoor je bent niet de enigste... Hier in Ontario is het ook "pet"...TP 14K (hope kanaal) vol signal. TP 19K BVN en nog een paar anderen is zeer zwak tot geen ontvangst :C.. soms als de atmosferische omstandigheden gunstige zijn heb je beeld... maar het is tegenwoordig meer niet dan wel helaas.
Het signal komt nauwlijks boven de ruis uit. Of deze TP heeft veel minder vermogen dan TP 14K.. of the antenne van deze transponder heeft een problem.
veenklaa
 
Berichten: 13
Lid geworden op: di 03 okt 2017, 08:33

Re: Slecht beeld en slecht audio - vervormt

Berichtdoor fuifnummer » wo 04 okt 2017, 01:07

Ja hier in Philadelphia wat toch veel beter bestreken wordt door de sateliet dan Ontario is het hommeles. Het beeld hikt en met dat de audio.

Is BVN hiervan op de hoogte? Ik denk het niet en heb zojuist een bericht aand BVN gestuurd.

Nu maar afwachten.
fuifnummer
 
Berichten: 117
Lid geworden op: zo 14 nov 2010, 17:05
Locatie: West Chester, PA

Re: Slecht beeld en slecht audio - vervormt

Berichtdoor Wilco » wo 04 okt 2017, 16:16

Voor de duidelijkheid. De signaalontvangst is goed, boven de 40% (Ontario - modified 80cm schotel), echter visueel is het beeld wazig en is het geluid is zwaar vervormt.

Als de signaalsterkte slecht zou zijn zoals in het verleden of natuurlijk met veel bewolking, dan valt het beelt letterlijk stil of helemaal weg en dit is hier niet het geval. Beeld is altijd zichtbaar maar wazig alsof de impedantie niet goed is en het geluid zwaar vervormt.

Het probleem ligt dus niet aan de ontvangst maar aan de beeld/geluid verwerking oftwel de digitale processsing aan de zenderzijde.
Alle andere zenders op de satelite zijn goed zoals Hope.
Wilco
 
Berichten: 24
Lid geworden op: vr 31 dec 2010, 04:45

Re: Slecht beeld en slecht audio - vervormt

Berichtdoor johanr » do 05 okt 2017, 00:45

Sinds vorig weekend is de encoding bitrate lager, zowel voor de video stream als de audio. Dit veroorzaakt de slechtere kwaliteit. Mijn vrouw vergeleek het met de oude VHS video banden van weleer.

Ik heb een mailtje gestuurd, maar daarop nog geen reactie gekregen. Hier zijn de details (van ffmpeg, een programma dat video bestanden kan analyseren, etc.)

Johan

=======
Momenteel is dit de stream kwaliteit dit ( video 3006kbps, audio 96kbps)

Program 1
Stream #0:0[0x142]: Video: mpeg2video (Main) ([2][0][0][0] / 0x0002), yuv420p(tv), 720x480 [SAR 32:27 DAR 16:9], 3006 kb/s, 29.97 fps, 29.97 tbr, 90k tbn, 59.94 tbc
Stream #0:1[0x143]: Audio: mp2 ([3][0][0][0] / 0x0003), 48000 Hz, stereo, s16p, 96 kb/s


en voor dit weekend was met name de video bitrate veel hoger, video variabel to 15M, maar audio ook hoger 128kbps

Program 1
Stream #0:0[0x142]: Video: mpeg2video (Main) ([2][0][0][0] / 0x0002), yuv420p(tv), 720x480 [SAR 32:27 DAR 16:9], max. 15000 kb/s, 29.97 fps, 29.97 tbr, 90k tbn, 59.94 tbc
Stream #0:1[0x143]: Audio: mp2 ([4][0][0][0] / 0x0004), 48000 Hz, stereo, s16p, 128 kb/s
johanr
 
Berichten: 13
Lid geworden op: di 03 okt 2017, 08:32
Locatie: Oregon, V.S.

Re: Slecht beeld en slecht audio - vervormt

Berichtdoor BVN admin » do 05 okt 2017, 08:48

De ontvangstproblemen in Noord Amerika zouden nu verholpen moeten zijn. We horen graag als dat niet zo is.
Gebruikersavatar
BVN admin
Beheerder
 
Berichten: 750
Lid geworden op: di 08 dec 2009, 12:41
Website: http://www.bvn.tv
Locatie: Hilversum, Nederland

Re: Slecht beeld en slecht audio - vervormt

Berichtdoor fuifnummer » vr 06 okt 2017, 00:39

Beste BVN

Het is nog steeds niet verholpen. Het is alsof je naar 1970 tv zit te kijken. De DWDD show is net de Berend Bouudewijn show, en het hikt nog steeds.

Sorry voor het slechte nieuws

F
fuifnummer
 
Berichten: 117
Lid geworden op: zo 14 nov 2010, 17:05
Locatie: West Chester, PA

Re: Slecht beeld en slecht audio - vervormt

Berichtdoor johanr » vr 06 okt 2017, 22:11

Mee eens, nog even slecht. De encoding is nog altijd hetzelde, zie hieronder, van een stukje 'Thuis" net opgenomen ...
(Video is te veel gecomprimeerd, en de lage audio bitrate van 96kbps zorgt voor een tinnig geluid...)

Johan

Input #0, mpegts, from '4027_20171006210600.ts':
Duration: 00:00:36.64, start: 36321.102689, bitrate: 3350 kb/s
Program 1
Stream #0:0[0x142]: Video: mpeg2video (Main) ([2][0][0][0] / 0x0002), yuv420p(tv), 720x480 [SAR 32:27 DAR 16:9], 3104 kb/s, 29.97 fps, 29.97 tbr, 90k tbn, 59.94 tbc
Stream #0:1[0x143]: Audio: mp2 ([3][0][0][0] / 0x0003), 48000 Hz, stereo, s16p, 96 kb/s
johanr
 
Berichten: 13
Lid geworden op: di 03 okt 2017, 08:32
Locatie: Oregon, V.S.

Re: Slecht beeld en slecht audio - vervormt

Berichtdoor Wilco » zo 08 okt 2017, 01:10

Beste BVN,

Ik heb een klein stukje video opgenomen (bvn-vlc.ts) wat je kunt download en dan bekijken met het softwareprogramma VLC. Ik zal het een week op mijn site houden om voor julie te downloaden, daarna wordt het verwijderd. Het is ongecomprimeerd.
Zoals door Johan gemeld is de MPEG 2 stream van zeer lage kwaliteit en het audio is matig.
De streaminfo te zien in de JPG files en via VLC.

Dit was niet zo!
Er is iets veranderd, iets meer dan een week geleden, zo rond 1 oktober.

Files verwijderd.

Ik hoop dat juliie er iets aan kunnen doen. Alvast mijn dank.
Laatst gewijzigd door Wilco op ma 16 okt 2017, 01:36, 1 keer totaal gewijzigd.
Wilco
 
Berichten: 24
Lid geworden op: vr 31 dec 2010, 04:45

Re: Slecht beeld en slecht audio - vervormt

Berichtdoor fuifnummer » di 10 okt 2017, 22:56

Ja er is heel duidelijk iets verandered. Wilco heeft gelijk het is net 1970 televisie.

Wilco: I ga ze een PM sturen want ik weet niet of ze dit lezen.

F
fuifnummer
 
Berichten: 117
Lid geworden op: zo 14 nov 2010, 17:05
Locatie: West Chester, PA


Terug naar “%s” Amerika



Wie is er online

Gebruikers op dit forum: Geen geregistreerde gebruikers en 1 gast

cron